<?xml version="1.0" standalone="no"?>
<!DOCTYPE svg PUBLIC "-//W3C//DTD SVG 1.1//EN" "http://www.w3.org/Graphics/SVG/1.1/DTD/svg11.dtd" >
<svg xmlns="http://www.w3.org/2000/svg" xmlns:xlink="http://www.w3.org/1999/xlink" version="1.1">
<metadata>
Created by FontForge 20170731 at Fri Jan  1 02:30:17 1904
 By Aleksey,,,
1998 by Boba Fonts - Davide Canavero - canavero@pianeta.net
</metadata>
<defs>
<font id="StarJedi" horiz-adv-x="1515" >
  <font-face 
    font-family="Star Jedi"
    font-weight="400"
    font-stretch="normal"
    units-per-em="2048"
    panose-1="4 11 0 0 0 0 0 0 0 0"
    ascent="1638"
    descent="-410"
    x-height="1444"
    cap-height="1444"
    bbox="-1656 -708 5371 2560"
    underline-thickness="50"
    underline-position="-175"
    unicode-range="U+0020-2020"
  />
<missing-glyph horiz-adv-x="3072" 
d="M512 0v2560h2048v-2560h-2048zM2494 66v2428h-1916v-2428h1916z" />
    <glyph glyph-name=".notdef" horiz-adv-x="3072" 
d="M512 0v2560h2048v-2560h-2048zM2494 66v2428h-1916v-2428h1916z" />
    <glyph glyph-name=".null" horiz-adv-x="0" 
 />
    <glyph glyph-name="nonmarkingreturn" horiz-adv-x="0" 
 />
    <glyph glyph-name="space" unicode=" " horiz-adv-x="950" 
 />
    <glyph glyph-name="exclam" unicode="!" horiz-adv-x="872" 
d="M162 1444h549l-80 -909h-389zM213 385h446v-385h-446v385z" />
    <glyph glyph-name="quotedbl" unicode="&#x22;" horiz-adv-x="1139" 
d="M635 813v631h307v-631h-307zM197 813v631h307v-631h-307z" />
    <glyph glyph-name="numbersign" unicode="#" horiz-adv-x="2035" 
d="M1882 1086l-7 -235l-41 -166l-42 -97l-14 -7q-97 -214 -339 -373q-131 -83 -346 -118h-242l-118 21l-13 14l-90 20l-146 76l-103 70l-90 90q-194 235 -229 505q-27 235 63 491l34 62l14 7q-7 28 125 194l83 76q242 180 463 201h256q194 -35 339 -125q388 -242 443 -706z
M235 637q28 -7 42 13l-49 139l70 27h6l-20 146q-7 55 20 214l-76 21l42 131l-14 28l-35 -7l-62 -256q-7 -318 76 -456zM318 1425l90 111h28l34 -42l21 -6q139 138 291 173l-21 89l152 21h7l-7 56l-145 -21l-118 -42l-152 -83q-90 -76 -131 -131h-21l-62 -90l7 -21z
M1439 1494l21 7l48 49l28 -35q21 7 69 -76q14 -7 42 21l-42 69h-21l-20 42l-83 83q-166 124 -450 173l-21 -7l7 -49l111 -7l34 -14l-13 -89q242 -77 290 -167zM879 180h48v48l-152 21l14 90q-159 55 -215 97q-55 34 -83 76l-48 -55h-28l-90 110l-34 -20q-7 -21 41 -70
l152 -145l173 -97zM1024 180l125 14q103 27 235 90q55 27 173 138l97 118v20l-28 14l-28 -14l-14 -41l-55 -55h-21l-41 48h-21l-104 -97l-131 -62l-56 -14l14 -76q-55 -35 -138 -35zM1695 643q28 -6 62 125l28 159q7 139 -14 256l-69 187l-41 -21l48 -138l-62 -21
q-21 -7 -14 -41q41 -56 0 -319l76 -20l-42 -153q28 0 28 -14zM547 650l20 7l49 56q48 20 131 103h21l35 -34l76 -42l48 -14l-41 -228v-41h173l-42 269l104 42l62 55l118 -97h14l69 -69q27 0 97 146v20l-236 76q-20 0 -13 35q20 35 13 97l-13 76q27 0 249 90l-21 55l-69 90
v14l-208 -173q-97 83 -166 90l35 270l-35 7l-145 -7l48 -270q-104 -28 -159 -90h-21l-186 159h-14l-83 -138v-21l256 -90q-21 -14 -14 -159l14 -28l-14 -13h-28q-152 -77 -201 -77l-13 -13z" />
    <glyph glyph-name="dollar" unicode="$" horiz-adv-x="2059" 
d="M500 1737h14q-114 -149 -170 -327l-15 -135q36 -355 299 -462q128 -14 199 64q21 0 78 171v184l-42 121q-107 164 -185 192q14 50 85 121l29 -7q71 -57 120 -149h8q7 64 -22 156l-57 100l171 199l171 -206l-64 -107l-15 -50l-7 -99h15l78 121l50 42q21 7 64 -42l42 -64
l-121 -114l-85 -128q-114 -406 171 -505q156 -14 263 121q71 85 121 284q42 228 -178 519q334 -206 405 -647v-213q-28 -206 -92 -327q-256 -448 -740 -498q-426 -21 -704 242q-270 277 -284 583q-29 547 398 860z" />
    <glyph glyph-name="percent" unicode="%" horiz-adv-x="1923" 
d="M889 1104h76l139 -63q76 21 125 -215q7 -62 -49 -153l-48 -55l-98 -49q-159 -21 -256 49l-21 14l-77 139l14 152l28 35q-28 56 167 146zM778 1777q34 0 41 -28q-14 -104 0 -208l-21 -21l-34 14l-21 77l-56 90q-7 42 21 48zM854 1395l7 84l21 48q-21 35 14 132l-14 97
l21 70v118l13 21h21q7 -49 21 -49v-62l14 -28l14 -104l-7 -42q48 -160 42 -215q-14 -63 0 -125l-21 -21h-118q-28 21 -28 76zM1076 1770q97 -21 111 -48l-69 -160l-21 -21q-35 7 -35 21v187zM1270 1694l28 -7v-76l-28 -77q7 -55 -20 -118l7 -55l48 -35h70l138 83l28 -7
l-28 -69l-41 -42l-7 -34l-35 -35l42 -77l146 14q125 42 166 7l-111 -97l-69 -35l-35 -41l21 -97q76 -42 132 -42l48 -28l7 -21q-55 -34 -173 -48q-28 -14 -28 -139l111 -49l97 -83l-14 -21l-104 21q-62 -7 -104 21q-56 7 -97 -21l7 -76l76 -132v-35h-28l-20 21l-132 62
q-84 0 -91 -62q-7 -21 21 -104q-21 -14 21 -132l-14 -28q-21 -7 -41 21q-84 111 -84 139l-48 55q-35 14 -105 0l-27 -41q14 -56 -35 -139l-49 7q-20 27 -13 139q-42 69 -139 27l-104 -159l-42 -35l-21 21v41l14 28l14 125q62 49 -49 111h-41l-42 -35l-104 -48l-28 7l21 76
l48 42v41q35 35 21 49l-48 63h-77q-145 -42 -208 -35q-14 35 7 42l69 34l63 56l48 14q56 76 28 104l-69 34l-139 35v21l187 49q42 76 0 125l-215 125l-21 34l21 14l195 -42l90 -6q35 76 55 69v28l-55 104q-56 55 -7 83h28l34 -41l28 -7q70 -98 181 0q-28 69 -28 138
q-21 28 -14 77q-35 21 -14 97l35 -14l76 -90v-28l63 -62l34 -63v-97l-20 -21l-63 -21l-28 -27l-48 -21l-56 -42l-76 -90q-14 -63 -35 -70l-14 -48v-56q-41 -21 -7 -208l56 -132l41 -62l70 -49l28 -49l69 -27l42 -49l139 -28l13 -21h125l84 42q34 -14 125 35l27 48
q42 0 56 28v28l35 21l83 132q14 145 42 152l-21 56v49l-28 34q14 28 0 56q-21 21 -14 48q-35 21 -41 63l-98 104l-187 111l-14 76l28 70l48 55l7 35q70 104 84 97z" />
    <glyph glyph-name="ampersand" unicode="&#x26;" horiz-adv-x="1887" 
d="M1331 1644l62 7l119 56l14 21h27v-35l-76 -140q-28 -83 28 -90h69q133 42 209 35q7 -28 -104 -105q-21 7 -98 -49l7 -118l14 -14l160 -35l21 -21l-69 -48q-28 20 -119 -42l-21 -105l209 -146l7 -14l-21 -14h-90q-70 28 -202 35q-28 -70 -42 -63v-21q49 -27 49 -69
q69 -84 55 -105l-167 77q-125 0 -118 -91l21 -62q0 -98 28 -147l-7 -69l-35 14l-7 27l-35 28q-70 98 -63 119q-34 14 -48 55l-21 56l14 77l181 111l111 112q0 42 35 62q-7 21 21 77l-7 28l28 42q-7 28 21 90q-35 21 -42 147l-28 27l-14 49l-42 63l-34 21v28l-63 34l-21 21
q7 28 -77 56q-90 0 -132 42h-125l-14 -21q-63 0 -154 -35q0 -21 -83 -69l-56 -63q-97 -35 -167 -328v-76l21 -42v-56l55 -132l70 -77q167 -104 202 -111l14 -21q7 -98 -21 -132q-35 -56 -76 -84v-28l-91 -104l-28 7v69l21 28v49l21 49v55q21 49 14 70l-70 35l-62 -7
q-28 -7 -42 -42q-42 -7 -63 -49l-49 14v49q98 125 84 146l-42 35l-14 42q-70 7 -265 -49l-41 14l27 42l216 132q28 28 0 112l-195 48q-7 28 14 28l119 28l14 14q104 14 48 119q-7 -14 -209 125q-7 35 21 35l209 -42l77 7l35 56q7 21 -21 55v42l-49 35l-21 56l7 28l56 -14
l97 -49q42 -63 126 42q-7 48 -21 48v70l-28 91l7 55l28 -7l77 -90q0 -35 62 -98q42 -21 91 -14l42 35q-7 119 20 154q56 7 56 -14q28 -56 28 -140q21 -42 132 -28l42 49l49 105l56 62l35 -14l-28 -104l7 -56q-56 -83 28 -153zM885 1400h153l104 -56l56 -69l35 -105l-28 -146
l-56 -91l-146 -48l-35 -21h-76l-98 49l-70 62v35q-34 7 -41 132v56l76 139zM885 648h118l21 -21q-14 -49 0 -153l-21 -133l-11 -59l-3 -38l-17 -258l-20 -224q-6 -34 -14 -102q-32 347 -32 361l-14 123l-2 74l-6 90l-10 114v32q-17 34 -17 110q0 70 28 84zM780 446
q21 7 42 -21q-14 -105 0 -209l-21 -28l-111 42v35l55 90l21 77zM1080 425q21 7 42 -21l69 -139l-7 -35l-76 -35q-35 -7 -42 21v188zM886 306z" />
    <glyph glyph-name="quotesingle" unicode="'" horiz-adv-x="647" 
d="M170 813v631h307v-631h-307z" />
    <glyph glyph-name="parenleft" unicode="(" horiz-adv-x="758" 
d="M725 -105h-375q-85 142 -147.5 295.5t-96.5 311.5t-34 319q0 454 278 928h375q-58 -107 -101 -218t-72.5 -230.5t-43.5 -239.5t-14 -240q0 -119 14.5 -240t43 -239t71.5 -228.5t102 -218.5z" />
    <glyph glyph-name="parenright" unicode=")" horiz-adv-x="758" 
d="M410 -105h-375q231 424 231 926q0 120 -15 246t-43 239t-74 231t-99 212h375q86 -145 147.5 -296t96 -310.5t34.5 -321.5t-34.5 -321.5t-96.5 -310t-147 -294.5z" />
    <glyph glyph-name="asterisk" unicode="*" horiz-adv-x="1620" 
d="M363 1275q29 0 168 -162l-6 -34q-127 -81 -231 -214q-81 -103 -92 -230q35 -81 52 -93l115 -86q58 -6 93 11l23 41h17q11 -18 -29 -81l-63 -35q-75 -11 -197 52q-86 64 -126 196q-6 116 17 179l11 12l6 63l17 35l18 75l17 17q17 52 110 173zM473 1650l17 -29
q-23 -75 -5 -190l52 -58q17 12 86 -52l46 -75l6 -46l23 -35v-17l17 6l18 46l-6 46q-35 6 -23 144l-69 127v23l-41 41l-17 -6l-52 46l-29 81q-40 34 -34 46q-6 75 17 98l34 29h12l40 40q12 12 87 -23l-64 -132l87 -47v-109l29 104v46l-46 29l17 34l58 69l29 -11q98 6 109 -12
l17 -17l133 29q23 -12 46 0q23 -17 29 -133l-29 -63l-40 -41v-17l-46 -29l-81 -29l-29 -52q-40 -11 -104 -69q0 -75 29 -138l-6 -6l23 -133h12l23 145l35 5l109 58l69 81l-11 109l46 81l23 23l17 -29v-46q-17 6 -11 -46l17 6l23 -116l-5 -28l-93 -104l-52 -104q18 -6 12 -35
q0 -29 -23 -40l-87 -52l-11 -35v-23l29 -57q-12 -12 5 -70l-40 -51q-12 -35 0 -75l-29 -52l6 -139q23 -11 23 -63q-17 -35 -63 -46l-18 -41l6 -52q29 -23 17 -40h-5l5 -116l-17 -34l17 -41l-5 -5l5 -127l-23 17v-17l-29 6l12 265l-17 185l5 5l-11 58q11 104 0 133l40 57
l23 116q35 63 23 109q-23 6 -80 -40q11 -46 0 -98l-23 -104l-41 75l6 87l-52 98l-17 -52q-6 -35 17 -139q58 -52 52 -69l-12 -40l12 -127q29 -58 17 -87l12 -404h-6q12 -28 -6 -40q-17 12 -52 0q12 104 0 110l23 294l-17 63l-104 121l23 179l-5 162l-35 46l-6 58l23 40v40
l-75 70l6 28l-23 35q-92 58 -98 81q23 17 23 34v24q-40 69 -35 69l29 34l29 81q-12 64 23 81zM1027 1096l29 69l63 52l29 58l29 35h29l75 -64l80 -81l6 -23l12 -6q29 -63 40 -57q81 -179 98 -381q23 -23 -75 -179q-57 -63 -138 -86q-156 -6 -196 34v12q28 -17 98 -12l57 29
l58 46l40 81q-11 139 -75 214l-121 155l-92 75l-12 23q-5 -11 -34 6zM600 490q23 6 63 -40l-11 -121v-121l-35 69q0 110 -29 179q-5 29 12 34zM871 427q35 11 46 -29l6 -69l-6 -104h18l5 -46l-17 -23v-18l-35 -75q0 266 -40 329q0 29 23 35z" />
    <glyph glyph-name="plus" unicode="+" horiz-adv-x="1456" 
d="M-100 1014v430h1656v-430h-1656z" />
    <glyph glyph-name="comma" unicode="," horiz-adv-x="758" 
d="M188 397h435l-236 -630h-326z" />
    <glyph glyph-name="hyphen" unicode="-" horiz-adv-x="758" 
d="M92 377v360h574v-360h-574z" />
    <glyph glyph-name="period" unicode="." horiz-adv-x="758" 
d="M156 0v397h446v-397h-446z" />
    <glyph glyph-name="slash" unicode="/" horiz-adv-x="758" 
d="M518 1468h363l-641 -1493h-363z" />
    <glyph glyph-name="zero" unicode="0" horiz-adv-x="1516" 
d="M47 721q0 162 46.5 298.5t137 238t223.5 156t306 54.5q163 0 294.5 -52t224 -151.5t141 -237t48.5 -306.5q0 -225 -81 -393.5t-241.5 -260.5t-385.5 -92q-224 0 -385.5 93.5t-244.5 263.5t-83 389zM584 721q0 -108 4 -176t19.5 -124t53 -90t99.5 -34q79 0 117 56.5
t46.5 140t8.5 227.5q0 150 -8.5 234t-46 138t-117.5 54q-82 0 -120.5 -54.5t-47 -138t-8.5 -233.5z" />
    <glyph glyph-name="one" unicode="1" horiz-adv-x="1065" 
d="M119 705l-146 376l539 363h440v-1444h-516v938z" />
    <glyph glyph-name="two" unicode="2" horiz-adv-x="1212" 
d="M586 348h585v-348h-1130v406q236 118 418 235q91 63 143.5 124t52.5 142q0 104 -77 152.5t-189 48.5q-177 0 -319 -61v376q114 21 226 33t226 12q275 0 462 -108t187 -365q0 -117 -52.5 -215t-135.5 -173.5t-171 -129.5t-226 -125v-4z" />
    <glyph glyph-name="three" unicode="3" horiz-adv-x="1212" 
d="M223 567v316q78 -4 115 -4q70 0 126 6t102 33t46 83q0 79 -61 112.5t-148 33.5t-179.5 -17t-166.5 -40v323q95 30 210 42.5t261 12.5q112 0 219 -22t199 -69.5t147.5 -126.5t55.5 -187q0 -246 -275 -326v-4q295 -77 295 -334q0 -148 -91.5 -243t-234.5 -138t-304 -43
q-123 0 -261.5 16.5t-234.5 43.5v336q70 -24 169.5 -42t190.5 -18q109 0 169.5 27.5t60.5 101.5q0 82 -70.5 112t-163.5 30q-63 0 -176 -15z" />
    <glyph glyph-name="four" unicode="4" horiz-adv-x="1442" 
d="M426 584h384v451zM1158 584h251v-308h-252v-276h-347v276h-777v308l777 860h347z" />
    <glyph glyph-name="five" unicode="5" horiz-adv-x="1212" 
d="M1104 1444v-336h-539v-223q55 6 160 6q120 0 222 -54t162 -155t60 -233q0 -176 -93 -281.5t-239 -149t-321 -43.5q-62 0 -141 7t-152.5 21t-146.5 34v330q183 -43 301 -43q256 0 256 163q0 100 -83.5 138.5t-199.5 38.5q-117 0 -256 -33v813h1010z" />
    <glyph glyph-name="six" unicode="6" horiz-adv-x="1401" 
d="M1237 1430v-334q-25 6 -72.5 18t-83 18t-88 10.5t-112.5 4.5q-140 0 -236 -68t-96 -221q51 42 130.5 65t190.5 23q130 0 244.5 -54.5t184 -159.5t69.5 -249q0 -169 -89.5 -283.5t-234 -169.5t-309.5 -55q-205 0 -366 91t-248.5 254t-87.5 370q0 248 98 424t272 265
t398 89q254 0 436 -38zM897 483q0 86 -47 137.5t-129 51.5q-84 0 -128 -53t-44 -148q0 -80 45.5 -133t126.5 -53q80 0 128 56t48 142z" />
    <glyph glyph-name="seven" unicode="7" horiz-adv-x="1212" 
d="M25 1444h1163v-397l-514 -1047h-615l609 1047h-643v397z" />
    <glyph glyph-name="eight" unicode="8" horiz-adv-x="1401" 
d="M25 385q0 282 286 350v4q-89 30 -146.5 71.5t-86.5 106.5t-29 156q0 112 55.5 188.5t150 122t207.5 65t236 19.5q172 0 316.5 -36.5t235.5 -125t91 -233.5q0 -133 -65.5 -211t-192.5 -125v2v-4q132 -33 212.5 -120.5t80.5 -229.5q0 -114 -59.5 -194t-156.5 -127t-218 -68
t-244 -21q-167 0 -320 39t-253 130t-100 241zM860 467q0 82 -40 133t-122 51t-119.5 -51.5t-37.5 -136.5q0 -84 38 -137.5t119 -53.5q82 0 122 54.5t40 140.5zM545 1036q0 -75 40.5 -122t112.5 -48q69 0 108.5 47.5t39.5 118.5q0 69 -39.5 116.5t-108.5 47.5
q-71 0 -112 -46.5t-41 -113.5z" />
    <glyph glyph-name="nine" unicode="9" horiz-adv-x="1401" 
d="M164 14v334q56 -15 104 -26t112 -18t140 -7q138 0 235 68t97 221q-110 -88 -322 -88q-129 0 -243 53.5t-184 159.5t-70 250q0 128 52.5 224.5t142.5 159t202 93t236 30.5q155 0 285 -51.5t223 -147t143.5 -228t50.5 -287.5q0 -248 -98 -424.5t-271.5 -265.5t-398.5 -89
q-249 0 -436 39zM504 961q0 -85 48 -137t128 -52q85 0 128.5 53t43.5 148q0 81 -44 133.5t-128 52.5q-81 0 -128.5 -55.5t-47.5 -142.5z" />
    <glyph glyph-name="colon" unicode=":" horiz-adv-x="758" 
d="M156 0v397h446v-397h-446zM156 680v397h446v-397h-446z" />
    <glyph glyph-name="semicolon" unicode=";" horiz-adv-x="1360" 
d="M60 0v1014h-60v430h1298v-430h-768v-166h496v-252h-496v-166h1230v-430h-1700z" />
    <glyph glyph-name="less" unicode="&#x3c;" horiz-adv-x="0" 
d="M-1656 -512v430h1656v-430h-1656z" />
    <glyph glyph-name="equal" unicode="=" horiz-adv-x="1456" 
d="M-100 0v430h1656v-430h-1656z" />
    <glyph glyph-name="greater" unicode="&#x3e;" horiz-adv-x="0" 
d="M0 -512v430h1656v-430h-1656z" />
    <glyph glyph-name="question" unicode="?" horiz-adv-x="1176" 
d="M711 535h-410q8 143 47 218.5t89.5 113t94 71.5t43.5 86t-52 68t-150 16q-69 0 -150.5 -20.5t-138.5 -47.5v353q118 37 221.5 56t224.5 19q122 0 250 -28.5t220 -106.5t92 -213q0 -104 -48.5 -172.5t-147 -148.5t-142 -132t-43.5 -132zM283 385h446v-385h-446v385z" />
    <glyph glyph-name="at" unicode="@" horiz-adv-x="5507" 
d="M5371 882h-781q-276 0 -328 -268t296 -588q212 -172 -72 -158h-307v-430h771q312 52 318 320t-318 552q-180 160 76 142h344zM2206 2516v-430h-458v-1014h-470v1014h-328v430h1256zM932 -560l478 1442h716l481 -1442h-546l-91 260h-429l-91 -260h-518zM1771 548
l-207 -572h398zM2628 -562v1444h940q174 -16 286 -92t164 -204q40 -192 4 -296t-126 -174t-258 -110l108 -138h432v-430h-570l-458 477v-477h-522zM3150 532v-266h364q29 0 63 21.5t36 108.5q-5 83 -40.5 109.5t-59.5 26.5h-363zM-469 882l256 -624l134 624h470l-362 -1444
h-470l-540 1444h512zM392 882l201 -624l207 624h510l-475 -1444h-470l-181 614l152 607zM1968 1072l475 1444h717l483 -1444h-546l-91 260h-429l-91 -260h-518zM2807 2180l-207 -572h398zM3684 1072v1444h940q174 -16 286 -92t164 -204q40 -192 4 -296t-126 -174t-258 -110
l108 -138h432v-430h-570l-458 477v-477h-522zM4190 2164v-266h364q29 0 63 21.5t36 108.5q-5 83 -40.5 109.5t-59.5 26.5h-363zM949 2516h-674q-276 0 -328 -268t296 -588q212 -172 -72 -158h-912v-430h1376q312 52 318 320t-318 552q-180 160 76 142h238v430z" />
    <glyph glyph-name="A" unicode="A" 
d="M755 1124l-207 -572h398zM-100 1014v430h1212l483 -1444h-546l-91 260h-429l-91 -260h-518l333 1014h-353z" />
    <glyph glyph-name="B" unicode="B" horiz-adv-x="1628" 
d="M60 0v1014h-300v430h1285q237 -2 360.5 -82t149.5 -268q9 -144 -61 -226t-231 -135v-4q79 -10 146 -42.5t112.5 -77t70.5 -100.5t25 -110q0 -171 -87.5 -259t-225 -115t-333.5 -25h-911zM558 559v-267h321q83 -3 145 36t62 96q6 63 -50.5 99t-156.5 36h-321zM558 1094
v-219h350q29 0 61 30.5t34 81.5q-4 59 -38.5 83t-57.5 24h-349z" />
    <glyph glyph-name="C" unicode="C" horiz-adv-x="1440" 
d="M478 738q8 -120 52 -180t105 -95t185 -51q128 8 184 34t128 86l284 -316q-124 -116 -246 -160t-354 -56q-224 12 -339 65.5t-227.5 142t-176 222t-63.5 309.5q0 174 63.5 307.5t176 222t227.5 142t339 65.5q232 -12 354 -56t246 -160l-284 -316q-72 60 -128 86t-184 34
q-124 -16 -185 -51t-105 -95t-52 -180z" />
    <glyph glyph-name="D" unicode="D" horiz-adv-x="1662" 
d="M60 0v1014h-300v430h1152q173 0 305 -46t223 -124t151.5 -211t60.5 -346q-11 -197 -66 -335t-146 -218t-222.5 -124t-329.5 -40h-828zM542 1086v-726h275q93 0 150 39.5t93 101t46 221.5q-3 146 -40.5 215.5t-96.5 109t-154 39.5h-273z" />
    <glyph glyph-name="E" unicode="E" horiz-adv-x="1360" 
d="M60 0v1014h-300v430h1538v-430h-768v-166h496v-252h-496v-166h890v-430h-1360z" />
    <glyph glyph-name="F" unicode="F" horiz-adv-x="1328" 
d="M60 0v1014h-300v430h1538v-430h-768v-166h496v-252h-496v-596h-470z" />
    <glyph glyph-name="G" unicode="G" horiz-adv-x="1440" 
d="M1001 430v292h439v-722h-621q-228 0 -412.5 83.5t-290.5 250.5t-106 409q0 170 63.5 303.5t176 222t227.5 142t339 65.5q232 -12 354 -56t246 -160l-284 -316q-72 60 -128 86t-184 34q-124 -16 -182 -54t-102 -98t-56 -184q12 -124 56 -174t110 -82t142 -40t213 -2z" />
    <glyph glyph-name="H" unicode="H" horiz-adv-x="1398" 
d="M888 946v498h470v-1444h-470v520h-378v-520h-470v1014h-300v430h770v-498h378z" />
    <glyph glyph-name="I" unicode="I" horiz-adv-x="1398" 
d="M888 946v498h870v-430h-400v-1014h-470v520h-378v-520h-470v1444h470v-498h378z" />
    <glyph glyph-name="J" unicode="J" horiz-adv-x="877" 
d="M1046 1444v-430h-250v-1022q-6 -166 -36 -234t-107 -128t-193 -91t-210 -41t-250 -10v430q88 -2 141 6t90 26t60 51t35 123v1320h720z" />
    <glyph glyph-name="K" unicode="K" horiz-adv-x="1404" 
d="M530 1444v-470l330 470h470l-538 -722l240 -292h772v-430h-910l-364 430v-430h-470v1444h470z" />
    <glyph glyph-name="L" unicode="L" horiz-adv-x="1312" 
d="M60 0v1014h-300v430h770v-1014h782v-430h-1252z" />
    <glyph glyph-name="M" unicode="M" horiz-adv-x="1650" 
d="M40 0v1014h-300v430h770l316 -600l314 600h470v-1444h-470v600l-302 -600h-26l-302 600v-600h-470z" />
    <glyph glyph-name="N" unicode="N" horiz-adv-x="1430" 
d="M60 0v1444h470l430 -540v540h870v-430h-400v-1014h-470l-430 540v-540h-470z" />
    <glyph glyph-name="O" unicode="O" horiz-adv-x="1430" 
d="M60 0v1014h-300v430h770l430 -540v540h470v-1444h-470l-430 540v-540h-470z" />
    <glyph glyph-name="P" unicode="P" horiz-adv-x="1501" 
d="M60 0v1014h-300v430h1240q174 -16 288 -90t162 -206q44 -160 36 -240t-32 -150t-132 -162t-288 -119h-452v-477h-522zM582 1084v-266h364q29 0 63 21.5t36 108.5q-5 83 -40.5 109.5t-59.5 26.5h-363z" />
    <glyph glyph-name="Q" unicode="Q" horiz-adv-x="1650" 
d="M1610 0v1014h400v430h-870l-316 -600l-314 600h-470v-1444h470v600l302 -600h26l302 600v-600h470z" />
    <glyph glyph-name="R" unicode="R" horiz-adv-x="1550" 
d="M60 0v1444h940q174 -16 286 -92t164 -204q40 -192 4 -296t-126 -174t-258 -110l108 -138h772v-430h-910l-458 477v-477h-522zM582 1084v-266h364q29 0 63 21.5t36 108.5q-5 83 -40.5 109.5t-59.5 26.5h-363z" />
    <glyph glyph-name="S" unicode="S" horiz-adv-x="1135" 
d="M1298 1444h-890q-276 0 -328 -268t296 -588q211 -166 -72 -158h-796v-430h1260q312 52 318 320t-318 552q-181 150 76 142h454v430z" />
    <glyph glyph-name="T" unicode="T" horiz-adv-x="1070" 
d="M1228 1444v-430h-458v-1014h-470v1014h-458v430h1386z" />
    <glyph glyph-name="U" unicode="U" horiz-adv-x="1404" 
d="M60 0v372v1072h470v-470l330 470h470l-538 -722l460 -718q62 -92 152 -86v-430q-250 -2 -352 180l-522 762v-430h-470z" />
    <glyph glyph-name="V" unicode="V" horiz-adv-x="1550" 
d="M60 372v1072h940q174 -16 279 -86t143 -135t54 -159t-21 -205t-127 -181t-258 -110l372 -608q36 -52 108 -42v-430q-286 -8 -374 112l-594 877v-477h-522v372zM582 1084v-266h364q29 0 63 21.5t36 108.5q-5 83 -40.5 109.5t-59.5 26.5h-363z" />
    <glyph glyph-name="W" unicode="W" horiz-adv-x="1800" 
d="M1006 612l-152 -612h-470l-332 1014h-300v430h662l198 -624l172 624h432l201 -624l134 624h465l-357 -1444h-470z" />
    <glyph glyph-name="X" unicode="X" horiz-adv-x="1550" 
d="M564 1014h-564v430h1000q174 -16 286 -92t164 -204q40 -192 4 -296t-126 -174t-258 -110l108 -138h432v-430h-570l-458 477v-477h-522v864h886q29 0 63 13t36 60q-5 47 -40.5 61.5t-59.5 14.5z" />
    <glyph glyph-name="Y" unicode="Y" horiz-adv-x="1472" 
d="M-136 1444v-430h300l336 -484v-530h472v530l630 914h-570l-294 -446l-298 446h-576z" />
    <glyph glyph-name="Z" unicode="Z" 
d="M739 1124l207 -572h-398zM1594 1014v430h-1212l-483 -1444h546l91 260h429l91 -260h518l-333 1014h353z" />
    <glyph glyph-name="bracketleft" unicode="[" horiz-adv-x="1404" 
d="M530 1444v-470l330 470h470l-538 -722l240 -292h772v-430h-910l-364 430v-430h-470v1014h-300v430h770z" />
    <glyph glyph-name="backslash" unicode="\" horiz-adv-x="56" 
d="M-296 0v430h650v-430h-650z" />
    <glyph glyph-name="bracketright" unicode="]" horiz-adv-x="1800" 
d="M922 612l-152 -612h-470l-440 1444h470l198 -624l172 624h432l201 -624l134 624h763v-430h-400l-255 -1014h-470z" />
    <glyph glyph-name="asciicircum" unicode="^" horiz-adv-x="2059" 
d="M923 1302q284 12 356 -266q11 -284 -267 -355q-284 -12 -355 266q-12 284 266 355zM0 1249q107 385 450 604q142 77 266 112q142 36 243 24q337 18 651 -225q249 -219 331 -539v-23h-367q-53 201 -301 361q-243 130 -509 47l-119 -53q-195 -119 -284 -355h-361v47z
M1574 787h367q-71 -343 -331 -562q-266 -207 -562 -225q-142 -6 -255 12q-621 136 -793 728v47h361q184 -450 675 -432q213 24 379 172q118 118 165 260h-6z" />
    <glyph glyph-name="underscore" unicode="_" horiz-adv-x="1454" 
d="M974 1444v-854q6 -146 -56 -203t-194 -61q-106 2 -177 62t-67 202v854h-770v-430h300v-417q3 -180 59.5 -287.5t143 -179.5t217 -112t290.5 -44q133 3 270.5 36.5t240 105.5t158 185t55.5 295v848h-470z" />
    <glyph glyph-name="grave" unicode="`" horiz-adv-x="1630" 
d="M1703 1444l-508 -1444h-767l-371 1014h-299v430h734l332 -1109l328 1109h551z" />
    <glyph glyph-name="a" unicode="a" 
d="M-80 0l475 1444h717l483 -1444h-546l-91 260h-429l-91 -260h-518zM755 1124l-207 -572h398z" />
    <glyph glyph-name="b" unicode="b" horiz-adv-x="1628" 
d="M60 0v1444h985q237 -2 360.5 -82t149.5 -268q9 -144 -61 -226t-231 -135v-4q79 -10 146 -42.5t112.5 -77t70.5 -100.5t25 -110q0 -171 -87.5 -259t-225 -115t-333.5 -25h-911zM558 559v-267h321q83 -3 145 36t62 96q6 63 -50.5 99t-156.5 36h-321zM558 1094v-219h350
q29 0 61 30.5t34 81.5q-4 59 -38.5 83t-57.5 24h-349z" />
    <glyph glyph-name="c" unicode="c" horiz-adv-x="1484" 
d="M1032 430h452v-430h-640q-235 0 -425 83.5t-299.5 250.5t-109.5 409q0 170 65.5 303.5t181.5 222t266.5 132t320.5 43.5h396h244v-430h-452q-152 0 -225 -9t-130 -30t-101 -73t-51 -184q5 -128 51 -183t112 -73t136 -25t208 -7z" />
    <glyph glyph-name="d" unicode="d" horiz-adv-x="1662" 
d="M60 0v1444h852q173 0 305 -46t223 -124t151.5 -211t60.5 -346q-11 -197 -66 -335t-146 -218t-222.5 -124t-329.5 -40h-828zM542 1086v-726h275q93 0 150 39.5t93 101t46 221.5q-3 146 -40.5 215.5t-96.5 109t-154 39.5h-273z" />
    <glyph glyph-name="e" unicode="e" horiz-adv-x="1360" 
d="M60 0v1444h1238v-430h-768v-166h496v-252h-496v-166h890v-430h-1360z" />
    <glyph glyph-name="f" unicode="f" horiz-adv-x="1328" 
d="M60 0v1444h1238v-430h-768v-166h496v-252h-496v-596h-470z" />
    <glyph glyph-name="g" unicode="g" horiz-adv-x="1484" 
d="M1032 430v292h452v-722h-640q-235 0 -425 83.5t-299.5 250.5t-109.5 409q0 170 65.5 303.5t181.5 222t266.5 132t320.5 43.5h396h244v-430h-452q-152 0 -225 -9t-130 -30t-101 -73t-51 -184q5 -128 51 -183t112 -73t136 -25t208 -7z" />
    <glyph glyph-name="h" unicode="h" horiz-adv-x="1398" 
d="M888 946v498h470v-1444h-470v520h-378v-520h-470v1444h470v-498h378z" />
    <glyph glyph-name="i" unicode="i" horiz-adv-x="550" 
d="M40 1444h470v-1444h-470v1444z" />
    <glyph glyph-name="j" unicode="j" horiz-adv-x="879" 
d="M878 1444v-430h-74v-560q-6 -166 -48 -228t-123 -121t-221 -91q-136 -10 -221 -11t-183 -3v430q78 -20 176 0q78 18 108 42t42 114v858h544z" />
    <glyph glyph-name="k" unicode="k" horiz-adv-x="1404" 
d="M530 1444v-470l330 470h470l-538 -722l240 -292h432v-430h-570l-364 430v-430h-470v1444h470z" />
    <glyph glyph-name="l" unicode="l" horiz-adv-x="1312" 
d="M60 0v1444h470v-1014h782v-430h-1252z" />
    <glyph glyph-name="m" unicode="m" horiz-adv-x="1650" 
d="M40 0v1444h470l316 -600l314 600h470v-1444h-470v600l-302 -600h-26l-302 600v-600h-470z" />
    <glyph glyph-name="n" unicode="n" horiz-adv-x="1430" 
d="M60 0v1444h470l430 -540v540h470v-1444h-470l-430 540v-540h-470z" />
    <glyph glyph-name="o" unicode="o" horiz-adv-x="1677" 
d="M1668 714q0 -237 -99 -404t-286.5 -251t-447.5 -84t-446.5 84.5t-282.5 250t-96 404.5q0 181 55 318.5t161 231.5t260 142.5t349 48.5q259 0 447 -85.5t287 -252t99 -403.5zM523 710q0 -139 62.5 -242t246.5 -103q142 0 212.5 54t88 123.5t23.5 167.5q-6 139 -67 242.5
t-257 103.5q-309 0 -309 -346z" />
    <glyph glyph-name="p" unicode="p" horiz-adv-x="1501" 
d="M60 0v1444h940q174 -16 288 -90t162 -206q44 -160 36 -240t-32 -150t-132 -162t-288 -119h-452v-477h-522zM582 1084v-266h364q29 0 63 21.5t36 108.5q-5 83 -40.5 109.5t-59.5 26.5h-363z" />
    <glyph glyph-name="q" unicode="q" horiz-adv-x="1639" 
d="M1639 430v-430l-859 -25q-185 5 -326.5 53t-241.5 143.5t-151 233.5t-51 316q0 182 53 312.5t155 226.5t246 144t368 60q228 -12 402 -76t284 -212t98 -440q-24 -132 -94.5 -230t75.5 -76h42zM527 702q0 -139 62.5 -242t246.5 -103v71q276 -28 297 73.5t27 200.5
q-6 137 -67 240.5t-257 103.5q-309 0 -309 -344z" />
    <glyph glyph-name="r" unicode="r" horiz-adv-x="1550" 
d="M60 0v1444h940q174 -16 286 -92t164 -204q40 -192 4 -296t-126 -174t-258 -110l108 -138h432v-430h-570l-458 477v-477h-522zM582 1084v-266h364q29 0 63 21.5t36 108.5q-5 83 -40.5 109.5t-59.5 26.5h-363z" />
    <glyph glyph-name="s" unicode="s" horiz-adv-x="1135" 
d="M1196 1444h-788q-276 0 -328 -268t296 -588q211 -166 -72 -158h-304v-430h768q312 52 318 320t-318 552q-181 150 76 142h352v430z" />
    <glyph glyph-name="t" unicode="t" horiz-adv-x="1366" 
d="M1376 1444v-430h-458v-1014h-470v1014h-458v430h1386z" />
    <glyph glyph-name="u" unicode="u" horiz-adv-x="1454" 
d="M480 1444v-854q-6 -146 56 -203t194 -61q106 2 177 62t67 202v854h470v-847q-3 -180 -59.5 -287.5t-143 -179.5t-217 -112t-290.5 -44q-133 3 -270.5 36.5t-240 105.5t-158 185t-55.5 295v848h470z" />
    <glyph glyph-name="v" unicode="v" horiz-adv-x="1630" 
d="M-80 1444l508 -1444h767l515 1444h-579l-332 -1109l-328 1109h-551z" />
    <glyph glyph-name="w" unicode="w" horiz-adv-x="1800" 
d="M922 612l-152 -612h-470l-440 1444h470l198 -624l172 624h432l201 -624l134 624h470l-362 -1444h-470z" />
    <glyph glyph-name="x" unicode="x" horiz-adv-x="1472" 
d="M1602 1444l-530 -722l530 -722h-570l-298 446l-294 -446h-570l530 722l-530 722h570l294 -446l298 446h570z" />
    <glyph glyph-name="y" unicode="y" horiz-adv-x="1472" 
d="M1602 1444l-630 -914v-530h-472v530l-630 914h570l294 -446l298 446h570z" />
    <glyph glyph-name="z" unicode="z" horiz-adv-x="1400" 
d="M40 1444h1320v-430l-699 -584h699v-430h-1320v430l699 584h-699v430z" />
    <glyph glyph-name="braceleft" unicode="{" horiz-adv-x="1675" 
d="M796 1733l7 52q-45 70 -39 90q32 0 32 -13l39 -90h32l25 26l32 6v32l-38 90l13 32l32 -38q0 -65 32 -110q64 -6 103 13l19 45q-26 84 -6 97l19 -13v-122l64 -7v-13h51l45 103l13 -6l-32 -109l45 -13l6 -13h39l19 38h26q0 -38 -26 -44q-19 -39 19 -58l84 -39l83 77h20
l-39 -64q-45 -6 -45 -38l39 -33q6 -38 -20 -45q-109 58 -89 90l-52 20q-45 57 -96 90l-19 -7l-26 13h-58v13l-64 -13h-173l-65 -19q-12 -32 -51 -20zM1378 1829l12 33l14 1l36 38h18l4 -18l-30 -32l-17 -2l-18 -19zM1274 1936v29l19 -3l5 -9zM719 1708l13 -13l32 -13l6 -45
l142 -173h19q-7 -45 38 -39l33 39q6 -19 89 -13l20 71l-13 38l45 90h38l64 -51v-71l-51 -90v-13l39 -6l45 6l19 -19l32 26l71 13l57 32l135 102l-13 -45l-45 -57h-25q-26 -39 -58 -52l-128 -25l-71 -45q-26 -65 58 -386l6 -276l-6 -57q19 -13 19 -154l-6 -45l-13 -7h-20
l-6 32l6 109l-12 7v109l-26 13q26 25 26 51q0 135 -33 180l-102 -13q-129 13 -180 0l-160 -481l-20 -20h-19l-13 52l39 51l32 64l6 97l19 32l20 77l32 38l25 96l-12 7l-13 160q25 97 32 251q19 13 13 58l-20 19l-38 6q-103 129 -135 135q13 19 -32 71l6 45l-12 19zM1515 440
l2 34l-14 1v13h38v-12l-12 -2l-1 -34h-13zM90 1746h404v-1342h1111v-404h-1515v1746zM199 1464h39l1 58l157 2l1 42h-192l-6 -12v-90zM231 1149l165 2l-1 43h-157q-13 32 6 39h154v38h-173l-13 -6l-19 -45q-7 -45 38 -71zM199 843l21 -33l56 -1l1 40l-45 6l-1 31h135v-26
l-38 -12l-1 -39h52l19 32q15 83 -58 96q-138 17 -146 -60zM199 462l38 1q63 24 155 38v58l-154 38h-39v-39l38 -8l2 -35l-39 -12zM270 544l1 -24l69 10zM224 145l58 -4q20 13 45 64q33 13 39 0v-19l-24 -6l-2 -39q39 -6 58 45q4 42 -26 64l-57 1q-58 -90 -84 -68v29l33 7
l-1 38l-44 -2l-26 -30v-45zM1548 439v49h12l15 -18l17 18h12v-49h-12v16l-16 -16l-16 16l-1 -16h-11zM655 71h58q-13 32 6 263l-45 -26l-6 -38l-122 -174l-26 -19v-6h51q13 122 97 96q13 -84 -13 -103v7zM632 185l37 -1l7 6l20 85l-9 2l-59 -81zM884 79h32l34 72l36 48l9 -7
l13 -4l12 17l1 19l-30 2l-14 -22l-30 -37l-2 8l11 31l1 20h-29l-23 -22l3 -10l16 14l8 -5l-10 -34zM1387 103l13 -26h38l32 45q13 6 -25 71l6 19q32 6 38 -19l7 6l-7 32l-44 -6l-20 -26v-45q32 -38 20 -58q-39 -6 -52 13zM1156 109v-38l38 6l39 39v12l-45 -25l38 102h39v20
h-32l12 38h-19l-13 -38l-38 -7v-13h19l-26 -83z" />
    <glyph glyph-name="bar" unicode="|" horiz-adv-x="56" 
d="M-296 1014v430h650v-430h-650z" />
    <glyph glyph-name="braceright" unicode="}" horiz-adv-x="2043" 
d="M1144 1990q239 -35 431 -164l175 -151q117 -135 187 -298q21 -59 41 -128q117 -467 -193 -887q-303 -326 -694 -362q-181 -6 -286 18q-700 180 -793 898q-6 181 17 286q175 671 846 788q137 20 269 0zM58 1062l2 -148v-24l8 -54l2 -30l18 -65l11 -6v-29l82 -181l117 -152
l58 -58l128 -99q216 -128 455 -152l199 6q99 18 245 64l11 6l53 23l123 76l163 146l117 163q99 222 110 380q18 210 -64 426l-99 181q-280 385 -753 408l-157 -6l-204 -47q-286 -99 -469 -366q-138 -205 -156 -462zM1138 1855l46 -5l12 -12q-17 -35 -17 -88l29 -5h23l18 87
l52 -6l6 -11l-58 -251l-59 11q6 70 18 70q17 41 -35 41l-18 -6l-17 -87l-59 6q18 140 59 256zM1465 1710q99 17 128 -59q12 -58 -47 -134q-58 -64 -99 -64q-88 6 -99 82q11 122 117 175zM1721 1500l47 -53l12 -35q17 -82 -111 -88l-35 -75l-70 5l6 30l58 75v6l-82 -52
l-35 29q-6 29 12 35zM1651 1173h24v-18l17 -17h18l35 58q99 47 145 -52q0 -30 -46 -35l-41 35l-41 -59q-105 -41 -157 59zM1640 969h58l198 -30l-6 -99l-52 6l-6 -6l-6 47l-35 12l-6 -35l-46 -6l-18 6v40h-35l-6 -46l-64 11l12 94zM1710 753q64 -18 52 -41q12 -23 -29 -64
q-53 -18 -76 35q0 70 53 70zM1488 607l35 -6q0 -18 23 -18l-17 -52l76 -6l35 -23l23 -76l-23 -64q-18 -6 -59 35l18 46l-29 12q-88 -12 -105 76zM1330 473q29 17 59 -41l-35 -47q-12 -47 52 -76l59 6l23 -29l-6 -41q-152 -17 -204 105v64q23 41 52 59zM1138 397h35l52 -234
v-23l-46 -12q-24 18 -65 222q-11 47 24 47zM893 403q41 -65 35 -105l23 -18l47 99q23 6 23 -17q35 -146 23 -152l12 -23v-53l-35 -17l-23 6l-18 105l-52 -88l-47 88l-29 -100l-53 30l35 110l12 12q-6 23 35 93v24zM671 461q29 6 82 -18l23 -29v-81q-41 -111 -128 -135
q-88 12 -100 70q0 146 123 193zM461 595q76 23 128 -47l-41 -52h-23q-12 23 -52 23q-30 -23 -41 -52q6 -64 17 -64l-46 -41q-35 -6 -41 87q35 134 99 146zM286 776h47l23 -23q0 -76 -29 -76q-64 -12 -76 47q6 40 35 52zM181 1079q82 18 163 -40l41 -94l-6 -23l-181 -18h-75
l-6 12q-18 140 64 163zM239 1324l187 -5l12 -6q-6 -24 11 -29v-30h-58l-18 -52l30 -53l-35 -17q-30 -6 -35 12l-170 163zM379 1605l59 -18l40 -64l88 -12l12 -29v-41l-117 18v-12l70 -41l-23 -47l-41 12l-76 64q-35 12 -99 76q41 82 87 94zM554 1762l35 -6l24 -46l17 -12
l-6 105l65 -23l5 -94q76 -23 88 -52l-6 -64l-87 46h-12l6 -23h11l24 -53l-41 -29l-64 76l-82 134v24zM928 1791q41 0 58 -29q18 -52 -41 -76q-58 6 -64 35q-23 35 47 70zM998 1564l46 -12l47 -47l23 -46l-5 -24q46 12 52 -70h12l128 -175l53 -105q11 -23 -53 -64h-17
q-35 41 -59 35l29 -64q-23 -29 -52 -35l-47 41q0 99 -52 128l-47 23l-35 6l-23 -35v-99l58 -70l93 -47l12 -11l12 -82q-24 -146 -53 -152h-303q-88 123 -111 362v123l35 128l35 64l70 76q64 53 158 82zM747 1068l17 -140h12l23 -88l47 -93l152 -6l70 6l-105 12l-82 -6
q-35 -6 -99 175q-23 64 -23 134l5 122l-11 -17l-6 -70q12 -12 0 -29zM834 560l278 -1l26 -22l11 -47l12 -12l-7 -3h-365q34 91 45 85zM1418 1570v-41l12 -6l46 12l47 64v41l-12 5q-41 12 -93 -75zM1651 1383v-6h35l29 23v18zM613 309v-29q17 0 11 -17q53 0 88 87
q6 35 -18 53q-17 5 -58 -41zM181 992v-23l117 5q11 18 -53 47q-41 0 -64 -29zM298 1260v-11l17 -12l12 12l-6 17zM373 1529l53 -47h6l-12 41l-17 12zM1129 1308l9 -21l14 -6l13 18l-15 9h-21zM938 1261l1 -24l29 -25l47 -30l10 -10h19l-3 14l-24 8l-41 29l-23 25l-15 17
l-1 -8v-11l2 4l-2 4zM1067 1194l-1 -9l15 -5v11zM1316 1106l-28 1l1 -25zM847 1345l-31 -33l-20 -31l-15 -30l-11 -29l-8 -28l7 -6l20 51l22 45l17 29zM807 597l14 -26l305 1l15 22l-12 4l-18 2h-285zM804 624l13 -10l315 2l6 5l-6 16l-18 10l-291 -1l-11 -11z" />
    <glyph glyph-name="asciitilde" unicode="~" horiz-adv-x="1472" 
d="M1708 1444v-430h-400l-336 -484v-530h-472v530l-630 914h570l294 -446l298 446h676z" />
    <glyph glyph-name="paragraph" unicode="&#xb6;" horiz-adv-x="2048" 
d="M499 2515l379 39l20 -64l-167 -119l-106 -10l-70 -738q80 208 191.5 285t260.5 97t303 2.5t234.5 -69.5t136 -166t71.5 -233l20 -40l5 -183l81 -649l-283 -148l5 -25l30 -25q316 79 334 -10l122 -19q69 -80 -1 -114l-1445 -40l-485 -59q-75 54 182 173l313 25l-45 49
l-20 50l40 59l5 25l-141 64l60 644v164q-40 10 -60 69l86 807l-66 30l-25 84zM1302 1482v-173l10 -20l-5 -827l81 -5l5 891h15v124zM918 1492l-35 -99l96 -20l20 114zM764 1400l15 90l-30 2l-20 -92h35zM610 1423h10l8 37l-71 5v-37zM1557 1462l-20 -106l40 2l36 97z
M1618 1361l73 -3l33 45l7 44l-80 15zM544 1395l335 -34l213 -42l-15 -728l-21 191q-22 210 -47 289t-80.5 138.5t-111 88t-116.5 32.5t-144 8zM1432 1315l292 41l10 -72q-66 -20 -101 -35t-60.5 -54.5t-58.5 -121t-63 -324.5l-23 -213zM524 1415l13 -96q63 2 132.5 -1.5
t129 -34.5t113.5 -88t77 -128t78 -528l23 -13l18 810l-230 40zM1416 1334l-3 -870l23 3q53 498 94.5 599.5t69.5 133.5t74.5 49.5t72.5 17.5v104zM1067 459q-37 133 -56.5 208t-45 163t-69.5 175t-137 118q-98 -7 -135 -53t-69.5 -126.5t-68.5 -261.5zM1767 648
q-39 280 -72 373t-71 79q-62 -39 -83.5 -86t-30 -93t-29.5 -189l-15 -164l-10 -96l311 163v13zM555 1514l-11 -15l16 -24l121 17l131 12l179 3l298 -12l195 -20l204 -3l66 -27l-5 67q-83 32 -177 46t-233 23t-276 6t-251 -8t-257 -65zM582 1519q140 37 314 42t262.5 5
t205.5 -5t209.5 -19.5t170.5 -44.5l5 -37l-83 20l-270 19l-197 10l-240 5l-172 -2l-142 -13l-85 -14l-5 12zM954 1933q151 -17 233 -21t165.5 -9t100 4t7.5 26t-43 32t-108.5 22.5t-135 7.5t-110 -7.5t-109.5 -54.5zM1443 1883q16 -69 52.5 -87.5t60.5 -23.5t40.5 13.5
t2.5 43.5t-40.5 43.5t-48 21t-67.5 -10.5zM1493 1888q35 -1 61 -19.5t38.5 -41.5t3.5 -30.5t-22 -3.5t-33 9t-41 24.5t-27.5 36.5t20.5 25zM577 2364l-53 -587l71 587h-18zM340 338q-147 -30 -188.5 -51t-24 -34.5t52 -8.5t71 27t89.5 67zM2077 370q-20 50 -60.5 47.5
t-74.5 -22.5t-96 -28.5t-107 -20t78.5 -2.5t259.5 26zM353 145q28 -140 -56 -168l56 -28q56 224 169 252q280 0 308 -112q56 -225 -140 -309h-168l-141 141q-28 -169 -393 -141l-28 281h-84v140q477 28 477 -56zM101 33h112v56h-112v-56zM101 -136l140 28l-28 57h-112v-85z
M578 -136l112 28l-28 197l-140 -28q-29 -140 56 -197zM858 201q365 28 393 -56q28 -140 -56 -168q84 28 84 -85l112 309h197l112 -337v-84l-281 84l-56 -84l-140 56q-112 -84 -365 -56v421zM998 33h113v56h-113v-56zM998 -136l141 28l-28 57h-113v-85zM1447 -51h85l-29 140
l-56 -56v-84zM224 -287h393v-140l-196 -28h140v-84h-112l-56 -169l-113 28l-56 253v140zM1094 -399q56 -225 -140 -309q-281 0 -309 141q-56 140 140 280q281 0 309 -112zM841 -624l113 28l-28 197l-141 -28q-28 -140 56 -197zM1126 -283q112 56 224 -112q0 112 57 112h448
v-140h-112v-140h253q-197 196 -56 280h280v-112l-140 -56q168 -169 0 -253h-449l-28 253l-112 28l-28 -281h-85l-140 141v-141h-112v421z" />
    <glyph glyph-name="questiondown" unicode="&#xbf;" horiz-adv-x="1176" 
d="M465 933h410q-8 -143 -47 -218.5t-89.5 -113t-94 -71.5t-43.5 -86t52 -68t150 -16q69 0 150.5 20.5t138.5 47.5v-353q-118 -37 -221.5 -56t-224.5 -19q-122 0 -250 28.5t-220 106.5t-92 213q0 104 48.5 172.5t147 148.5t142 132t43.5 132zM893 1083h-446v385h446v-385z
" />
    <glyph glyph-name="Agrave" unicode="&#xc0;" 
d="M-80 0l475 1444h717l483 -1444h-546l-91 260h-429l-91 -260h-518zM755 1124l-207 -572h398zM203 1796h462l176 -318z" />
    <glyph glyph-name="Aacute" unicode="&#xc1;" 
d="M1311 1796h-462l-176 -318zM-80 0l475 1444h717l483 -1444h-546l-91 260h-429l-91 -260h-518zM755 1124l-207 -572h398z" />
    <glyph glyph-name="Acircumflex" unicode="&#xc2;" 
d="M1030 1534l-279 283l-278 -283v-59l280 171l277 -174v62zM-80 0l475 1444h717l483 -1444h-546l-91 260h-429l-91 -260h-518zM755 1124l-207 -572h398z" />
    <glyph glyph-name="Atilde" unicode="&#xc3;" 
d="M-80 0l475 1444h717l483 -1444h-546l-91 260h-429l-91 -260h-518zM755 1124l-207 -572h398zM1052 1676q-148 -140 -323 51t-322 -79l60 -47q85 167 253 -15t408 50z" />
    <glyph glyph-name="Adieresis" unicode="&#xc4;" 
d="M-80 0l475 1444h717l483 -1444h-546l-91 260h-429l-91 -260h-518zM755 1124l-207 -572h398zM563 1764q51 0 83.5 -33.5t32.5 -83.5q-5 -61 -38.5 -92t-83.5 -31q-48 0 -81 33t-33 83q0 56 33 90t87 34zM941 1764q51 0 83.5 -33.5t32.5 -83.5q-5 -61 -38.5 -92t-83.5 -31
q-48 0 -81 33t-33 83q0 56 33 90t87 34z" />
    <glyph glyph-name="Aring" unicode="&#xc5;" 
d="M-80 0l475 1444h717l483 -1444h-546l-91 260h-429l-91 -260h-518zM755 1124l-207 -572h398zM754 1844q83 0 137.5 -55t54.5 -136q0 -82 -59.5 -140.5t-141.5 -58.5q-79 0 -133.5 53t-54.5 135q0 91 55 146.5t142 55.5zM753 1768q-54 0 -87 -34t-33 -90q0 -50 33 -83
t81 -33q50 0 83.5 31t38.5 92q0 50 -32.5 83.5t-83.5 33.5z" />
    <glyph glyph-name="AE" unicode="&#xc6;" horiz-adv-x="2062" 
d="M756 1122l-208 -570h208v570zM756 0v260h-227l-91 -260h-518l475 1444h1605v-430h-768v-166h496v-252h-496v-166h890v-430h-1366z" />
    <glyph glyph-name="Ccedilla" unicode="&#xc7;" horiz-adv-x="1440" 
d="M692 4q-100 8 -215 61.5t-227.5 142t-176 222t-63.5 309.5q0 174 63.5 307.5t176 222t227.5 142t339 65.5q232 -12 354 -56t246 -160l-284 -316q-72 60 -128 86t-184 34q-124 -16 -185 -51t-105 -95t-52 -180q8 -120 52 -180t105 -95t185 -51q128 8 184 34t128 86
l284 -316q-124 -116 -246 -160t-272 -55v-113q107 -20 159 -68t52 -116q0 -92 -101.5 -160.5t-261.5 -68.5q-63 0 -159 8l15 87q42 -12 100 -14q100 0 135.5 31t35.5 85q0 38 -39 66t-97 28q-17 0 -44 -3z" />
    <glyph glyph-name="Egrave" unicode="&#xc8;" horiz-adv-x="1360" 
d="M60 0v1444h1238v-430h-768v-166h496v-252h-496v-166h890v-430h-1360zM203 1796h462l176 -318z" />
    <glyph glyph-name="Eacute" unicode="&#xc9;" horiz-adv-x="1360" 
d="M60 0v1444h1238v-430h-768v-166h496v-252h-496v-166h890v-430h-1360zM1311 1796h-462l-176 -318z" />
    <glyph glyph-name="Ecircumflex" unicode="&#xca;" horiz-adv-x="1360" 
d="M60 0v1444h1238v-430h-768v-166h496v-252h-496v-166h890v-430h-1360zM1030 1534l-279 283l-278 -283v-59l280 171l277 -174v62z" />
    <glyph glyph-name="Edieresis" unicode="&#xcb;" horiz-adv-x="1360" 
d="M60 0v1444h1238v-430h-768v-166h496v-252h-496v-166h890v-430h-1360zM563 1764q51 0 83.5 -33.5t32.5 -83.5q-5 -61 -38.5 -92t-83.5 -31q-48 0 -81 33t-33 83q0 56 33 90t87 34zM941 1764q51 0 83.5 -33.5t32.5 -83.5q-5 -61 -38.5 -92t-83.5 -31q-48 0 -81 33t-33 83
q0 56 33 90t87 34z" />
    <glyph glyph-name="Igrave" unicode="&#xcc;" horiz-adv-x="550" 
d="M40 1444h470v-1444h-470v1444zM26 1796h371l113 -316z" />
    <glyph glyph-name="Iacute" unicode="&#xcd;" horiz-adv-x="550" 
d="M508 1444h-467v-1444h467v1444zM522 1796h-368l-113 -316z" />
    <glyph glyph-name="Icircumflex" unicode="&#xce;" horiz-adv-x="550" 
d="M40 1444h470v-1444h-470v1444zM502 1540l-229 283l-228 -283v-59l229 171l228 -174v62z" />
    <glyph glyph-name="Idieresis" unicode="&#xcf;" horiz-adv-x="550" 
d="M40 1444h470v-1444h-470v1444zM123 1764q51 0 83.5 -33.5t32.5 -83.5q-5 -61 -38.5 -92t-83.5 -31q-48 0 -81 33t-33 83q0 56 33 90t87 34zM435 1764q51 0 83.5 -33.5t32.5 -83.5q-5 -61 -38.5 -92t-83.5 -31q-48 0 -81 33t-33 83q0 56 33 90t87 34z" />
    <glyph glyph-name="Eth" unicode="&#xd0;" horiz-adv-x="1804" 
d="M212 0v542h-254v252h254v650h852q173 0 305 -46t223 -124t151.5 -211t60.5 -346q-11 -197 -66 -335t-146 -218t-222.5 -124t-329.5 -40h-828zM694 1086v-290h280v-254h-280v-182h275q93 0 150 39.5t93 101t46 221.5q-3 146 -40.5 215.5t-96.5 109t-154 39.5h-273z" />
    <glyph glyph-name="Ntilde" unicode="&#xd1;" horiz-adv-x="1430" 
d="M60 0v1444h470l430 -540v540h470v-1444h-470l-430 540v-540h-470zM1036 1676q-148 -140 -323 51t-322 -79l60 -47q85 167 253 -15t408 50z" />
    <glyph glyph-name="Ograve" unicode="&#xd2;" horiz-adv-x="1677" 
d="M1668 714q0 -237 -99 -404t-286.5 -251t-447.5 -84t-446.5 84.5t-282.5 250t-96 404.5q0 181 55 318.5t161 231.5t260 142.5t349 48.5q259 0 447 -85.5t287 -252t99 -403.5zM203 1796h462l176 -318zM523 710q0 -139 62.5 -242t246.5 -103q142 0 212.5 54t88 123.5
t23.5 167.5q-6 139 -67 242.5t-257 103.5q-309 0 -309 -346z" />
    <glyph glyph-name="Oacute" unicode="&#xd3;" horiz-adv-x="1677" 
d="M1668 714q0 -237 -99 -404t-286.5 -251t-447.5 -84t-446.5 84.5t-282.5 250t-96 404.5q0 181 55 318.5t161 231.5t260 142.5t349 48.5q259 0 447 -85.5t287 -252t99 -403.5zM1311 1796h-462l-176 -318zM523 710q0 -139 62.5 -242t246.5 -103q142 0 212.5 54t88 123.5
t23.5 167.5q-6 139 -67 242.5t-257 103.5q-309 0 -309 -346z" />
    <glyph glyph-name="Ocircumflex" unicode="&#xd4;" horiz-adv-x="1677" 
d="M1668 714q0 -237 -99 -404t-286.5 -251t-447.5 -84t-446.5 84.5t-282.5 250t-96 404.5q0 181 55 318.5t161 231.5t260 142.5t349 48.5q259 0 447 -85.5t287 -252t99 -403.5zM1114 1538l-290 300l-287 -300v-62l290 181l287 -185v66zM523 710q0 -139 62.5 -242t246.5 -103
q142 0 212.5 54t88 123.5t23.5 167.5q-6 139 -67 242.5t-257 103.5q-309 0 -309 -346z" />
    <glyph glyph-name="Otilde" unicode="&#xd5;" horiz-adv-x="1677" 
d="M1668 714q0 -237 -99 -404t-286.5 -251t-447.5 -84t-446.5 84.5t-282.5 250t-96 404.5q0 181 55 318.5t161 231.5t260 142.5t349 48.5q259 0 447 -85.5t287 -252t99 -403.5zM1124 1680q-148 -140 -323 51t-322 -79l60 -47q85 167 253 -15t408 50zM523 710
q0 -139 62.5 -242t246.5 -103q142 0 212.5 54t88 123.5t23.5 167.5q-6 139 -67 242.5t-257 103.5q-309 0 -309 -346z" />
    <glyph glyph-name="Odieresis" unicode="&#xd6;" horiz-adv-x="1677" 
d="M1668 714q0 -237 -99 -404t-286.5 -251t-447.5 -84t-446.5 84.5t-282.5 250t-96 404.5q0 181 55 318.5t161 231.5t260 142.5t349 48.5q259 0 447 -85.5t287 -252t99 -403.5zM1123 1764q51 0 83.5 -33.5t32.5 -83.5q-5 -61 -38.5 -92t-83.5 -31q-48 0 -81 33t-33 83
q0 56 33 90t87 34zM563 1764q51 0 83.5 -33.5t32.5 -83.5q-5 -61 -38.5 -92t-83.5 -31q-48 0 -81 33t-33 83q0 56 33 90t87 34zM523 710q0 -139 62.5 -242t246.5 -103q142 0 212.5 54t88 123.5t23.5 167.5q-6 139 -67 242.5t-257 103.5q-309 0 -309 -346z" />
    <glyph glyph-name="Oslash" unicode="&#xd8;" horiz-adv-x="1677" 
d="M640 420q4 -48 188 -52q148 0 238 76t94 245v123zM1446 1274l110 88l112 -150l-88 -78q88 -183 88 -420t-99 -404t-286.5 -251t-447.5 -84t-555 149l-168 -132l-110 148l134 108q-126 227 -126 466q0 181 55 318.5t161 231.5t260 142.5t349 48.5q259 0 410 -71.5
t201 -109.5zM1056 972q0 76 -220 84q-320 0 -306 -349q-6 -67 6 -135z" />
    <glyph glyph-name="Ugrave" unicode="&#xd9;" horiz-adv-x="1454" 
d="M480 1444v-854q-6 -146 56 -203t194 -61q106 2 177 62t67 202v854h470v-847q-3 -180 -59.5 -287.5t-143 -179.5t-217 -112t-290.5 -44q-133 3 -270.5 36.5t-240 105.5t-158 185t-55.5 295v848h470zM203 1796h462l176 -318z" />
    <glyph glyph-name="Uacute" unicode="&#xda;" horiz-adv-x="1454" 
d="M480 1444v-854q-6 -146 56 -203t194 -61q106 2 177 62t67 202v854h470v-847q-3 -180 -59.5 -287.5t-143 -179.5t-217 -112t-290.5 -44q-133 3 -270.5 36.5t-240 105.5t-158 185t-55.5 295v848h470zM1311 1796h-462l-176 -318z" />
    <glyph glyph-name="Ucircumflex" unicode="&#xdb;" horiz-adv-x="1454" 
d="M480 1444v-854q-6 -146 56 -203t194 -61q106 2 177 62t67 202v854h470v-847q-3 -180 -59.5 -287.5t-143 -179.5t-217 -112t-290.5 -44q-133 3 -270.5 36.5t-240 105.5t-158 185t-55.5 295v848h470zM1030 1538l-290 300l-287 -300v-62l290 181l287 -185v66z" />
    <glyph glyph-name="Udieresis" unicode="&#xdc;" horiz-adv-x="1454" 
d="M480 1444v-854q-6 -146 56 -203t194 -61q106 2 177 62t67 202v854h470v-847q-3 -180 -59.5 -287.5t-143 -179.5t-217 -112t-290.5 -44q-133 3 -270.5 36.5t-240 105.5t-158 185t-55.5 295v848h470zM947 1768q51 0 83.5 -33.5t32.5 -83.5q-5 -61 -38.5 -92t-83.5 -31
q-48 0 -81 33t-33 83q0 56 33 90t87 34zM499 1764q51 0 83.5 -33.5t32.5 -83.5q-5 -61 -38.5 -92t-83.5 -31q-48 0 -81 33t-33 83q0 56 33 90t87 34z" />
    <glyph glyph-name="Yacute" unicode="&#xdd;" horiz-adv-x="1472" 
d="M1602 1444l-630 -914v-530h-472v530l-630 914h570l294 -446l298 446h570zM1259 1796h-462l-176 -318z" />
    <glyph glyph-name="Thorn" unicode="&#xde;" horiz-adv-x="1378" 
d="M510 272v-272h-470v1444h470v-253q400 1 507.5 -28t181.5 -79t123 -134.5t49 -220.5q-8 -126 -53 -214t-119 -139t-181 -79t-268 -26zM510 908v-378l222 -1q75 0 121.5 20.5t76 53t37.5 116.5q-2 76 -32.5 112.5t-79 56.5t-125.5 20h-220z" />
    <glyph glyph-name="germandbls" unicode="&#xdf;" horiz-adv-x="1628" 
d="M558 559v-855h-498v1740h985q237 -2 360.5 -82t149.5 -268q9 -144 -61 -226t-231 -135v-4q79 -10 146 -42.5t112.5 -77t70.5 -100.5t25 -110q0 -171 -87.5 -259t-225 -115t-333.5 -25h-287v292h195q83 -3 145 36t62 96q6 63 -50.5 99t-156.5 36l-235 1v316l264 -1
q29 0 61 30.5t34 81.5q-4 59 -38.5 83t-57.5 24h-349v-535z" />
    <glyph glyph-name="agrave" unicode="&#xe0;" 
d="M-80 0l475 1444h717l483 -1444h-546l-91 260h-429l-91 -260h-518zM755 1124l-207 -572h398zM203 1796h462l176 -318z" />
    <glyph glyph-name="aacute" unicode="&#xe1;" 
d="M1311 1796h-462l-176 -318zM-80 0l475 1444h717l483 -1444h-546l-91 260h-429l-91 -260h-518zM755 1124l-207 -572h398z" />
    <glyph glyph-name="acircumflex" unicode="&#xe2;" 
d="M-80 0l475 1444h717l483 -1444h-546l-91 260h-429l-91 -260h-518zM755 1124l-207 -572h398zM1030 1534l-279 283l-278 -283v-59l280 171l277 -174v62z" />
    <glyph glyph-name="atilde" unicode="&#xe3;" 
d="M-80 0l475 1444h717l483 -1444h-546l-91 260h-429l-91 -260h-518zM755 1124l-207 -572h398zM1052 1676q-148 -140 -323 51t-322 -79l60 -47q85 167 253 -15t408 50z" />
    <glyph glyph-name="adieresis" unicode="&#xe4;" 
d="M-80 0l475 1444h717l483 -1444h-546l-91 260h-429l-91 -260h-518zM755 1124l-207 -572h398zM563 1764q51 0 83.5 -33.5t32.5 -83.5q-5 -61 -38.5 -92t-83.5 -31q-48 0 -81 33t-33 83q0 56 33 90t87 34zM941 1764q51 0 83.5 -33.5t32.5 -83.5q-5 -61 -38.5 -92t-83.5 -31
q-48 0 -81 33t-33 83q0 56 33 90t87 34z" />
    <glyph glyph-name="aring" unicode="&#xe5;" 
d="M-80 0l475 1444h717l483 -1444h-546l-91 260h-429l-91 -260h-518zM755 1124l-207 -572h398zM754 1844q83 0 137.5 -55t54.5 -136q0 -82 -59.5 -140.5t-141.5 -58.5q-79 0 -133.5 53t-54.5 135q0 91 55 146.5t142 55.5zM753 1768q-54 0 -87 -34t-33 -90q0 -50 33 -83
t81 -33q50 0 83.5 31t38.5 92q0 50 -32.5 83.5t-83.5 33.5z" />
    <glyph glyph-name="ae" unicode="&#xe6;" horiz-adv-x="2062" 
d="M756 1122l-208 -570h208v570zM756 0v260h-227l-91 -260h-518l475 1444h1605v-430h-768v-166h496v-252h-496v-166h890v-430h-1366z" />
    <glyph glyph-name="ccedilla" unicode="&#xe7;" horiz-adv-x="1484" 
d="M752 4q-143 -4 -333 79.5t-299.5 250.5t-109.5 409q0 170 65.5 303.5t181.5 222t266.5 132t320.5 43.5h396h244v-430h-452q-152 0 -225 -9t-130 -30t-101 -73t-51 -184q5 -128 51 -183t112 -73t136 -25t208 -7h452v-430h-526v-112q107 -20 159 -68t52 -116
q0 -92 -101.5 -160.5t-261.5 -68.5q-63 0 -159 8l15 87q42 -12 100 -14q100 0 135.5 31t35.5 85q0 38 -39 66t-97 28q-17 0 -44 -3z" />
    <glyph glyph-name="egrave" unicode="&#xe8;" horiz-adv-x="1360" 
d="M60 0v1444h1238v-430h-768v-166h496v-252h-496v-166h890v-430h-1360zM203 1796h462l176 -318z" />
    <glyph glyph-name="eacute" unicode="&#xe9;" horiz-adv-x="1360" 
d="M60 0v1444h1238v-430h-768v-166h496v-252h-496v-166h890v-430h-1360zM1311 1796h-462l-176 -318z" />
    <glyph glyph-name="ecircumflex" unicode="&#xea;" horiz-adv-x="1360" 
d="M60 0v1444h1238v-430h-768v-166h496v-252h-496v-166h890v-430h-1360zM1030 1534l-279 283l-278 -283v-59l280 171l277 -174v62z" />
    <glyph glyph-name="edieresis" unicode="&#xeb;" horiz-adv-x="1360" 
d="M60 0v1444h1238v-430h-768v-166h496v-252h-496v-166h890v-430h-1360zM563 1764q51 0 83.5 -33.5t32.5 -83.5q-5 -61 -38.5 -92t-83.5 -31q-48 0 -81 33t-33 83q0 56 33 90t87 34zM941 1764q51 0 83.5 -33.5t32.5 -83.5q-5 -61 -38.5 -92t-83.5 -31q-48 0 -81 33t-33 83
q0 56 33 90t87 34z" />
    <glyph glyph-name="igrave" unicode="&#xec;" horiz-adv-x="550" 
d="M40 1444h470v-1444h-470v1444zM26 1796h371l113 -316z" />
    <glyph glyph-name="iacute" unicode="&#xed;" horiz-adv-x="550" 
d="M508 1444h-467v-1444h467v1444zM522 1796h-368l-113 -316z" />
    <glyph glyph-name="icircumflex" unicode="&#xee;" horiz-adv-x="550" 
d="M40 1444h470v-1444h-470v1444zM502 1540l-229 283l-228 -283v-59l229 171l228 -174v62z" />
    <glyph glyph-name="idieresis" unicode="&#xef;" horiz-adv-x="550" 
d="M40 1444h470v-1444h-470v1444zM123 1764q51 0 83.5 -33.5t32.5 -83.5q-5 -61 -38.5 -92t-83.5 -31q-48 0 -81 33t-33 83q0 56 33 90t87 34zM435 1764q51 0 83.5 -33.5t32.5 -83.5q-5 -61 -38.5 -92t-83.5 -31q-48 0 -81 33t-33 83q0 56 33 90t87 34z" />
    <glyph glyph-name="eth" unicode="&#xf0;" horiz-adv-x="1804" 
d="M212 0v542h-254v252h254v650h852q173 0 305 -46t223 -124t151.5 -211t60.5 -346q-11 -197 -66 -335t-146 -218t-222.5 -124t-329.5 -40h-828zM694 1086v-290h280v-254h-280v-182h275q93 0 150 39.5t93 101t46 221.5q-3 146 -40.5 215.5t-96.5 109t-154 39.5h-273z" />
    <glyph glyph-name="ntilde" unicode="&#xf1;" horiz-adv-x="1430" 
d="M60 0v1444h470l430 -540v540h470v-1444h-470l-430 540v-540h-470zM1036 1676q-148 -140 -323 51t-322 -79l60 -47q85 167 253 -15t408 50z" />
    <glyph glyph-name="ograve" unicode="&#xf2;" horiz-adv-x="1677" 
d="M1668 714q0 -237 -99 -404t-286.5 -251t-447.5 -84t-446.5 84.5t-282.5 250t-96 404.5q0 181 55 318.5t161 231.5t260 142.5t349 48.5q259 0 447 -85.5t287 -252t99 -403.5zM203 1796h462l176 -318zM523 710q0 -139 62.5 -242t246.5 -103q142 0 212.5 54t88 123.5
t23.5 167.5q-6 139 -67 242.5t-257 103.5q-309 0 -309 -346z" />
    <glyph glyph-name="oacute" unicode="&#xf3;" horiz-adv-x="1677" 
d="M1668 714q0 -237 -99 -404t-286.5 -251t-447.5 -84t-446.5 84.5t-282.5 250t-96 404.5q0 181 55 318.5t161 231.5t260 142.5t349 48.5q259 0 447 -85.5t287 -252t99 -403.5zM1311 1796h-462l-176 -318zM523 710q0 -139 62.5 -242t246.5 -103q142 0 212.5 54t88 123.5
t23.5 167.5q-6 139 -67 242.5t-257 103.5q-309 0 -309 -346z" />
    <glyph glyph-name="ocircumflex" unicode="&#xf4;" horiz-adv-x="1677" 
d="M1668 714q0 -237 -99 -404t-286.5 -251t-447.5 -84t-446.5 84.5t-282.5 250t-96 404.5q0 181 55 318.5t161 231.5t260 142.5t349 48.5q259 0 447 -85.5t287 -252t99 -403.5zM1114 1538l-290 300l-287 -300v-62l290 181l287 -185v66zM523 710q0 -139 62.5 -242t246.5 -103
q142 0 212.5 54t88 123.5t23.5 167.5q-6 139 -67 242.5t-257 103.5q-309 0 -309 -346z" />
    <glyph glyph-name="otilde" unicode="&#xf5;" horiz-adv-x="1677" 
d="M1668 714q0 -237 -99 -404t-286.5 -251t-447.5 -84t-446.5 84.5t-282.5 250t-96 404.5q0 181 55 318.5t161 231.5t260 142.5t349 48.5q259 0 447 -85.5t287 -252t99 -403.5zM1124 1680q-148 -140 -323 51t-322 -79l60 -47q85 167 253 -15t408 50zM523 710
q0 -139 62.5 -242t246.5 -103q142 0 212.5 54t88 123.5t23.5 167.5q-6 139 -67 242.5t-257 103.5q-309 0 -309 -346z" />
    <glyph glyph-name="odieresis" unicode="&#xf6;" horiz-adv-x="1677" 
d="M1668 714q0 -237 -99 -404t-286.5 -251t-447.5 -84t-446.5 84.5t-282.5 250t-96 404.5q0 181 55 318.5t161 231.5t260 142.5t349 48.5q259 0 447 -85.5t287 -252t99 -403.5zM1123 1764q51 0 83.5 -33.5t32.5 -83.5q-5 -61 -38.5 -92t-83.5 -31q-48 0 -81 33t-33 83
q0 56 33 90t87 34zM563 1764q51 0 83.5 -33.5t32.5 -83.5q-5 -61 -38.5 -92t-83.5 -31q-48 0 -81 33t-33 83q0 56 33 90t87 34zM523 710q0 -139 62.5 -242t246.5 -103q142 0 212.5 54t88 123.5t23.5 167.5q-6 139 -67 242.5t-257 103.5q-309 0 -309 -346z" />
    <glyph glyph-name="oslash" unicode="&#xf8;" horiz-adv-x="1677" 
d="M640 420q4 -48 188 -52q148 0 238 76t94 245v123zM1446 1274l110 88l112 -150l-88 -78q88 -183 88 -420t-99 -404t-286.5 -251t-447.5 -84t-555 149l-168 -132l-110 148l134 108q-126 227 -126 466q0 181 55 318.5t161 231.5t260 142.5t349 48.5q259 0 410 -71.5
t201 -109.5zM1056 972q0 76 -220 84q-320 0 -306 -349q-6 -67 6 -135z" />
    <glyph glyph-name="ugrave" unicode="&#xf9;" horiz-adv-x="1454" 
d="M480 1444v-854q-6 -146 56 -203t194 -61q106 2 177 62t67 202v854h470v-847q-3 -180 -59.5 -287.5t-143 -179.5t-217 -112t-290.5 -44q-133 3 -270.5 36.5t-240 105.5t-158 185t-55.5 295v848h470zM203 1796h462l176 -318z" />
    <glyph glyph-name="uacute" unicode="&#xfa;" horiz-adv-x="1454" 
d="M480 1444v-854q-6 -146 56 -203t194 -61q106 2 177 62t67 202v854h470v-847q-3 -180 -59.5 -287.5t-143 -179.5t-217 -112t-290.5 -44q-133 3 -270.5 36.5t-240 105.5t-158 185t-55.5 295v848h470zM1311 1796h-462l-176 -318z" />
    <glyph glyph-name="ucircumflex" unicode="&#xfb;" horiz-adv-x="1454" 
d="M480 1444v-854q-6 -146 56 -203t194 -61q106 2 177 62t67 202v854h470v-847q-3 -180 -59.5 -287.5t-143 -179.5t-217 -112t-290.5 -44q-133 3 -270.5 36.5t-240 105.5t-158 185t-55.5 295v848h470zM1030 1538l-290 300l-287 -300v-62l290 181l287 -185v66z" />
    <glyph glyph-name="udieresis" unicode="&#xfc;" horiz-adv-x="1454" 
d="M480 1444v-854q-6 -146 56 -203t194 -61q106 2 177 62t67 202v854h470v-847q-3 -180 -59.5 -287.5t-143 -179.5t-217 -112t-290.5 -44q-133 3 -270.5 36.5t-240 105.5t-158 185t-55.5 295v848h470zM947 1768q51 0 83.5 -33.5t32.5 -83.5q-5 -61 -38.5 -92t-83.5 -31
q-48 0 -81 33t-33 83q0 56 33 90t87 34zM499 1764q51 0 83.5 -33.5t32.5 -83.5q-5 -61 -38.5 -92t-83.5 -31q-48 0 -81 33t-33 83q0 56 33 90t87 34z" />
    <glyph glyph-name="yacute" unicode="&#xfd;" horiz-adv-x="1472" 
d="M1602 1444l-630 -914v-530h-472v530l-630 914h570l294 -446l298 446h570zM1259 1796h-462l-176 -318z" />
    <glyph glyph-name="thorn" unicode="&#xfe;" horiz-adv-x="1378" 
d="M510 272v-272h-470v1444h470v-253q400 1 507.5 -28t181.5 -79t123 -134.5t49 -220.5q-8 -126 -53 -214t-119 -139t-181 -79t-268 -26zM510 908v-378l222 -1q75 0 121.5 20.5t76 53t37.5 116.5q-2 76 -32.5 112.5t-79 56.5t-125.5 20h-220z" />
    <glyph glyph-name="ydieresis" unicode="&#xff;" horiz-adv-x="1472" 
d="M1602 1444l-630 -914v-530h-472v530l-630 914h570l294 -446l298 446h570zM499 1764q51 0 83.5 -33.5t32.5 -83.5q-5 -61 -38.5 -92t-83.5 -31q-48 0 -81 33t-33 83q0 56 33 90t87 34zM947 1768q51 0 83.5 -33.5t32.5 -83.5q-5 -61 -38.5 -92t-83.5 -31q-48 0 -81 33
t-33 83q0 56 33 90t87 34z" />
    <glyph glyph-name="OE" unicode="&#x152;" horiz-adv-x="2062" 
d="M756 0q-176 -8 -360 86t-280 244t-92 386q-8 180 52 310t164 224t252 142t340 52h1168v-430h-768v-166h496v-252h-496v-166h890v-430h-1366zM523 710q0 -139 62.5 -242t246.5 -103v691q-309 0 -309 -346z" />
    <glyph glyph-name="oe" unicode="&#x153;" horiz-adv-x="2062" 
d="M756 0q-176 -8 -360 86t-280 244t-92 386q-8 180 52 310t164 224t252 142t340 52h1168v-430h-768v-166h496v-252h-496v-166h890v-430h-1366zM523 710q0 -139 62.5 -242t246.5 -103v691q-309 0 -309 -346z" />
    <glyph glyph-name="Scaron" unicode="&#x160;" horiz-adv-x="1135" 
d="M1196 1444h-788q-276 0 -328 -268t296 -588q211 -166 -72 -158h-304v-430h768q312 52 318 320t-318 552q-181 150 76 142h352v430zM922 1824l-290 -366l-287 366v76l290 -221l287 225v-80z" />
    <glyph glyph-name="scaron" unicode="&#x161;" horiz-adv-x="1135" 
d="M1196 1444h-788q-276 0 -328 -268t296 -588q211 -166 -72 -158h-304v-430h768q312 52 318 320t-318 552q-181 150 76 142h352v430zM922 1824l-290 -366l-287 366v76l290 -221l287 225v-80z" />
    <glyph glyph-name="Ydieresis" unicode="&#x178;" horiz-adv-x="1472" 
d="M1602 1444l-630 -914v-530h-472v530l-630 914h570l294 -446l298 446h570zM499 1764q51 0 83.5 -33.5t32.5 -83.5q-5 -61 -38.5 -92t-83.5 -31q-48 0 -81 33t-33 83q0 56 33 90t87 34zM947 1768q51 0 83.5 -33.5t32.5 -83.5q-5 -61 -38.5 -92t-83.5 -31q-48 0 -81 33
t-33 83q0 56 33 90t87 34z" />
    <glyph glyph-name="Zcaron" unicode="&#x17d;" horiz-adv-x="1400" 
d="M40 1444h1320v-430l-699 -584h699v-430h-1320v430l699 584h-699v430zM922 1824l-290 -366l-287 366v76l290 -221l287 225v-80z" />
    <glyph glyph-name="zcaron" unicode="&#x17e;" horiz-adv-x="1400" 
d="M40 1444h1320v-430l-699 -584h699v-430h-1320v430l699 584h-699v430zM922 1824l-290 -366l-287 366v76l290 -221l287 225v-80z" />
    <glyph glyph-name="quoteleft" unicode="&#x2018;" horiz-adv-x="647" 
d="M474 816zM476 814l-306 314v316h307z" />
    <glyph glyph-name="quoteright" unicode="&#x2019;" horiz-adv-x="647" 
d="M168 815zM170 813v631h307v-315z" />
    <glyph glyph-name="quotedblleft" unicode="&#x201c;" horiz-adv-x="1139" 
d="M940 816zM502 816zM504 814l-307 314v316h307v-630zM942 814l-307 314v316h307v-630z" />
    <glyph glyph-name="quotedblright" unicode="&#x201d;" horiz-adv-x="1139" 
d="M633 815zM195 815zM197 813v631h307v-315zM635 813v631h307v-315z" />
    <glyph glyph-name="quotedblbase" unicode="&#x201e;" horiz-adv-x="1649" 
d="M1183 478h-194v254h660v-732h-348v118q-34 -48 -92 -79t-151 -47.5t-192 -16.5q-175 -3 -329 47t-272 146t-186.5 210.5t-68.5 364.5q0 176 67.5 313.5t186.5 229t273.5 137t328.5 45.5q153 -4 315 -56t252 -142t132 -192t56 -154h-436q-74 124 -142 152t-148 28
t-148 -26t-108 -70t-72 -106t-36 -186q0 -132 50 -208t112 -112t163 -46t180 15t147 113z" />
    <glyph glyph-name="dagger" unicode="&#x2020;" horiz-adv-x="1650" 
d="M1144 528h497q-6 -48 -124 -216t-278 -250t-373 -87q-241 0 -436 86t-307.5 259t-112.5 423q0 176 67.5 313.5t186.5 229t273.5 137t328.5 45.5q157 0 293 -44t244 -140t170 -226t68 -178h-497q-16 100 -61 145t-78.5 60t-105.5 15t-146 -24t-114 -68t-64 -98t-36 -194
q12 -140 64 -216t128 -112t150 -40t111.5 8t87.5 49t64 123z" />
    <glyph glyph-name="glyph98" horiz-adv-x="2059" 
d="M181 992v-23l117 5q11 18 -53 47q-41 0 -64 -29zM286 1266v-6h12v6h-12zM298 1260v-11l17 -12l12 12l-6 17zM286 776h47l23 -23q0 -76 -29 -76q-64 -12 -76 47q6 40 35 52zM181 1079q82 18 163 -40l41 -94l-6 -23l-181 -18h-75l-6 12q-18 140 64 163zM373 1529l53 -47h6
l-12 41l-17 12zM239 1324l187 -5l12 -6q-6 -24 11 -29v-30h-58l-18 -52l30 -53l-35 -17q-30 -6 -35 12l-170 163zM455 1465v-6h6v6h-6zM379 1605l59 -18l40 -64l88 -12l12 -29v-41l-117 18v-12l70 -41l-23 -47l-41 12l-76 64q-35 12 -99 76q41 82 87 94zM461 595
q76 23 128 -47l-41 -52h-23q-12 23 -52 23q-30 -23 -41 -52q6 -64 17 -64l-46 -41q-35 -6 -41 87q35 134 99 146zM613 309v-29q17 0 11 -17q53 0 88 87q6 35 -18 53q-17 5 -58 -41zM671 461q29 6 82 -18l23 -29v-81q-41 -111 -128 -135q-88 12 -100 70q0 146 123 193z
M554 1762l35 -6l24 -46l17 -12l-6 105l65 -23l5 -94q76 -23 88 -52l-6 -64l-87 46h-12l6 -23h11l24 -53l-41 -29l-64 76l-82 134v24zM764 1214v-30l35 88l12 6v17l-23 -23zM811 1307v-12l12 6v12zM823 1319v-6h6v6h-6zM829 1324v-5h5v5h-5zM834 1336v-6h6v6h-6zM840 1342v-6
h6v6h-6zM939 1254v-17h12l-6 17h-6zM951 1237v-12h12l-6 12h-6zM963 1225v-11h11l-5 11h-6zM974 1214v-6h12v6h-12zM928 1791q41 0 58 -29q18 -52 -41 -76q-58 6 -64 35q-23 35 47 70zM986 1208v-6h6v6h-6zM998 1202l11 -18h12l-17 18h-6zM1021 1184v-11h23l-5 11h-18z
M893 403q41 -65 35 -105l23 -18l47 99q23 6 23 -17q35 -146 23 -152l12 -23v-53l-35 -17l-23 6l-18 105l-52 -88l-47 88l-29 -100l-53 30l35 110l12 12q-6 23 35 93v24zM747 1068l17 -140h12l23 -88l47 -93l152 -6l70 6l-105 12l-82 -6q-35 -6 -99 175q-23 64 -23 134l5 122
l-11 -17l-6 -70q12 -12 0 -29zM1068 1190v-6h11v6h-11zM811 601l327 -6l-12 -29l-309 6l-12 17zM823 648h291l24 -18v-17l-333 5q6 30 18 30zM834 560l280 -6l24 -17l11 -47l12 -12l-6 -11l-367 11q35 88 46 82zM1132 1307l17 -23l12 5l-12 18h-17zM1138 397h35l52 -234v-23
l-46 -12q-24 18 -65 222q-11 47 24 47zM1138 1855l46 -5l12 -12q-17 -35 -17 -88l29 -5h23l18 87l52 -6l6 -11l-58 -251l-59 11q6 70 18 70q17 41 -35 41l-18 -6l-17 -87l-59 6q18 140 59 256zM1289 1103v-18l24 12v6h-24zM998 1564l46 -12l47 -47l23 -46l-5 -24
q46 12 52 -70h12l128 -175l53 -105q11 -23 -53 -64h-17q-35 41 -59 35l29 -64q-23 -29 -52 -35l-47 41q0 99 -52 128l-47 23l-35 6l-23 -35v-99l58 -70l93 -47l12 -11l12 -82q-24 -146 -53 -158l-303 6q-88 123 -111 362v123l35 128l35 64l70 76q64 53 158 82zM1330 473
q29 17 59 -41l-35 -47q-12 -47 52 -76l59 6l23 -29l-6 -41q-152 -17 -204 105v64q23 41 52 59zM1418 1570v-41l12 -6l46 12l47 64v41l-12 5q-41 12 -93 -75zM1465 1710q99 17 128 -59q12 -58 -47 -134q-58 -64 -99 -64q-88 6 -99 82q11 122 117 175zM1488 607l35 -6
q0 -18 23 -18l-17 -52l76 -6l35 -23l23 -76l-23 -64q-18 -6 -59 35l18 46l-29 12q-88 -12 -105 76zM1651 1383v-6h35l29 23v18zM1710 753q64 -18 52 -41q12 -23 -29 -64q-53 -18 -76 35q0 70 53 70zM1721 1500l47 -53l12 -35q17 -82 -111 -88l-35 -75l-70 5l6 30l58 75v6
l-82 -52l-35 29q-6 29 12 35zM1651 1173h24v-18l17 -17h18l35 58q99 47 145 -52q0 -30 -46 -35l-41 35l-41 -59q-105 -41 -157 59zM1640 969h58l198 -30l-6 -99l-52 6l-6 -6l-6 47l-35 12l-6 -35l-46 -6l-18 6v40h-35l-6 -46l-64 11l12 94zM53 1062v-152l11 -17v-59l12 -11
l12 -82l11 -6v-29l82 -181l117 -152l58 -58l128 -99q216 -128 455 -152l199 6q99 18 245 64v12l64 17l123 76l163 146l117 163q99 222 110 380q18 210 -64 426l-99 181q-280 385 -753 408l-157 -6l-204 -47q-286 -99 -479 -367q-128 -204 -151 -461zM1144 1990
q239 -35 431 -164l175 -151q117 -135 187 -298q6 -53 41 -128q117 -467 -193 -887q-297 -333 -694 -362q-181 -6 -286 18q-700 180 -793 898q-6 181 17 286q175 671 846 788h269z" />
  </font>
</defs>
</svg>
